"We have Tested and found Below Host Trustable, Please Buy Premium account From Below Host.
UploadGIG.com
Note: Do not Buy Premium account from Reseller"
Information to the news
  • Views: 0
  • Author: buby2009
  • Date: 4-07-2018, 19:53
4-07-2018, 19:53

Free Download Manual Physical Therapy of the Spine

Category: Tutorials / Other Tutorial

Manual Physical Therapy of the Spine
Manual Physical Therapy of the Spine
DVDRip | English | AVI + PDF eBook | 720 x 540 | XviD ~1962 kbps | 29.970 fps
MP3 | 96 Kbps | 48.0 KHz | 2 channels | 02:11:53 | 2.18 GB
Genre: eLearning Video / Medicine, Massage, Rehabilitation


A hands-on, how-to approach helps you learn techniques and clinical problem-solving skills for treating spine and TMJ disorders! Written by a well-known authority on the subject of spinal manipulation in physical therapy, this book provides the information you need to make sound decisions during clinical interventions. An evidence-based impairment classification approach helps you provide the best outcomes for your patients. A companion DVD includes video clips demonstrating spinal examination and manipulation procedures. Specifically for physical therapists dedicated to spinal manipulation!
by Kenneth Olson, PT, DHSc, OCS, FAAOMPT, Private Practitioner, Northern Rehabilitation and Sports Medicine Associates, DeKalb, IL; Adjunct Assistant Professor, Marquette University, Milwaukee, WI


General
Complete name : VTS_01_1.avi
Format : AVI
Format/Info : Audio Video Interleave
File size : 475 MiB
Duration : 32mn 1s
Overall bit rate : 2 072 Kbps
Movie name : VTS_01_1
Writing application : Lavf53.21.0

Video
ID : 0
Format : MPEG-4 Visual
Format profile : Advanced [email protected]
Format settings, BVOP : 2
Format settings, QPel : No
Format settings, GMC : No warppoints
Format settings, Matrix : Default (H.263)
Muxing mode : Packed bitstream
Codec ID : XVID
Codec ID/Hint : XviD
Duration : 32mn 1s
Bit rate : 1 962 Kbps
Width : 720 pixels
Height : 540 pixels
Display aspect ratio : 4:3
Frame rate : 29.970 fps
Color space : YUV
Chroma subsampling : 4:2:0
Bit depth : 8 bits
Scan type : Progressive
Compression mode : Lossy
Bits/(Pixel*Frame) : 0.168
Stream size : 449 MiB (95%)
Writing library : XviD 1.2.1 (UTC 2008-12-04)

Audio
ID : 1
Format : MPEG Audio
Format version : Version 1
Format profile : Layer 3
Codec ID : 55
Codec ID/Hint : MP3
Duration : 32mn 0s
Bit rate mode : Constant
Bit rate : 96.0 Kbps
Channel(s) : 1 channel
Sampling rate : 48.0 KHz
Compression mode : Lossy
Stream size : 22.0 MiB (5%)
Alignment : Aligned on interleaves
Interleave, duration : 24 ms (0.72 video frame)
Writing library : LAME3.98.4

Manual Physical Therapy of the Spine

Download link:


Links are Interchangeable - No Password - Single Extraction
UploadGIG.com
Dear visitor, you entered the site as an unregistered user.
We recommend you to register or login to the website using your name.

Tags

News archive

^