"We have Tested and found Below Host Trustable, Please Buy Premium account From Below Host.
UploadGIG.com
Note: Do not Buy Premium account from Reseller"
Information to the news
  • Views: 0
  • Author: buby2009
  • Date: 30-11-2018, 23:51
30-11-2018, 23:51

Free Download Jon Dykstra - Blackroom Blog Profits (2018)

Category: Tutorials

Jon Dykstra - Blackroom Blog Profits (2018)
Jon Dykstra - Blackroom Blog Profits (2018)
WEBRip | English | MP4 + PDF Guides | 1280 x 720 | AVC ~1032 Kbps | 30 fps
AAC | 92.7 Kbps | 44.1 KHz | 2 channels | 08:27:06 | 3.31 GB
Genre: eLearning Video / Business, Sales, Marketing


Master blogging and become profitable in a comprehensive course for setting up your site, getting traffic and monetization strategies.
Class Curriculum:

Welcome
Start Welcome & Time management (14:16)
Start Quick Start Guide (6:32)
Start Suggested Tools
Start Sample Day Outline
Step 1 Picking A Niche
Start Picking A Niche Intro (16:47)
Start Niche Selection (33:11)
Step 2 Outsourcing & Simplifying
Start Outsourcing with Mike (26:11)
Start Outsourcing with Jon (19:17)
Start Making Procedures
Start Screenmeter To Look Over Work (2:42)
Start Sample Of A Google Folder To Organize Work
Step 3 Create Content
Start Intro to Blog Content (11:56)
Start Structuring Content into Series (Silos)
Start 8 Ways to Create Great Affiliate Content
Start Content outsourcing (25:19)
Start Article Ordering Instructions (Template)
Start How to Instruct Writers So You Get Good Content
Start Guest Blog Content (11:39)
Start Your About Us Page
Start Content ROI Calculator
Step 4 Monetize Your Site
Start Intro To Monetization (7:54)
Start Monetization with ads (Adsense, etc.) (28:23)
Start Content and Ad Format Map (GRAPHIC)
Start List Building Money (11:36)
Start Affiliate promotion basics (10:39)
Start Finding affiliate programs (7:28)
Start Finding Good offers (15:21)
Start CPA Companies (14:32)
Start Secrets to aff promotions (18:55)
Start Email Marketing
Step 5 Get Traffic
Start How to Set Up Pinterest Account (Step-by-Step - Everything)
Start Pinterest Tips and Tricks
Start How to Create Boards and Pins (5:02)
Start Pinterest Case Study (3:26)
Start Pinterest Traffic (37:54)
Start How to Set Up Rich Pins (1:58)
Start Pinterest Analytics in Google Analytics (1:35)
Start Canva Tutorial for Great Pins (6:51)
Start Best On-Site Social Sharing Plugins
Start #Hashtag Directory (All Niches)
Start Tailwind Pinterest Strategy (Step-by-Step)
Start 4 Examples of Successful Pins
Start Intro To SEO (17:11)
Start KW Research: "Flipped Method" (Our unique approach to KW research) (30:26)
Start Seed Keyword Vault (Flipped Method)
Start KW Research: Google Autosuggest on Steroids (3:45)
Start KW Research: Find unlimited KW's in the Form of Questions (we love these) (3:27)
Start KW Research: Merchant Product Curation Concept (So Easy) (8:11)
Start SEO Backlinks (19:40)
Start Onsite SEO (18:57)
Start SEO Increasing Your Click Through Rate (10:36)
Start SEO Step-by-Step Checklist
Big Sales & Services
Start Finding Experts For Sales & Coaching (24:32)
Start Big Sales & Services (13:48)
Start Fixing My Friend's Sales Page - Copywriting Tricks (49:40)
Selling Your Site
Start Selling Your Site (29:38)
Taking it to the Next Level (More of My Favorite Niche Blog Methods)
35 days after you enroll
Start My 2 Favorite/Highest Earning Ad Networks (Never Shared Publicly - Major Mobile Ad Boost)
Start 1 Free Tool that Can Dramatically Increase Affiliate Commissions (with Same Traffic) (10:43)
Start How to Create Cornerstone Content Blazing Fast (11:41)
Start KW Research: Low Competition Gems from the Competition (5:08)
Start B2B - How to Find Recurring Commission Business Software to Promote as an Affiliate (9:35)
Start Content Concept that Attracts Links (Only minutes to create) (6:50)
Start Hybrid Pagination for SEO and Page Views (5:13)
B0NUS: My Most Successful Passive Income Model (7 years running)
Start B2B Model Explained in Detail (Part 1)
Start B2B Model Explained in Detail (Part 2)
Start B2C and B2B Combo for Niche Domination (7:44)

Price: $997
More Info: Salepage

also You can find my other last: Business-posts


General
Complete name : 1.2 Niche Selection.mp4
Format : MPEG-4
Format profile : Base Media
Codec ID : isom (isom/iso2/avc1/mp41)
File size : 271 MiB
Duration : 33 min 36 s
Overall bit rate mode : Variable
Overall bit rate : 1 129 kb/s
Season : 0
Movie name : 1.2 Niche Selection
Part : 0
Xtra : WM/Category

Video
ID : 1
Format : AVC
Format/Info : Advanced Video Codec
Format profile : [email protected]
Format settings : 1 Ref Frames
Format settings, CABAC : No
Format settings, RefFrames : 1 frame
Format settings, GOP : M=1, N=12
Codec ID : avc1
Codec ID/Info : Advanced Video Coding
Duration : 33 min 36 s
Bit rate : 1 032 kb/s
Width : 1 280 pixels
Height : 720 pixels
Display aspect ratio : 16:9
Frame rate mode : Constant
Frame rate : 30.000 FPS
Color space : YUV
Chroma subsampling : 4:2:0
Bit depth : 8 bits
Scan type : Progressive
Bits/(Pixel*Frame) : 0.037
Stream size : 248 MiB (91%)
Encoded date : UTC 2018-11-03 13:31:50
Tagged date : UTC 2018-11-03 13:31:50
Menus : 3

Audio
ID : 2
Format : AAC
Format/Info : Advanced Audio Codec
Format profile : LC
Codec ID : mp4a-40-2
Duration : 33 min 36 s
Bit rate mode : Variable
Bit rate : 92.7 kb/s
Channel(s) : 2 channels
Channel positions : Front: L R
Sampling rate : 44.1 kHz
Frame rate : 43.066 FPS (1024 SPF)
Compression mode : Lossy
Stream size : 22.3 MiB (8%)
Encoded date : UTC 2018-11-03 13:31:50
Tagged date : UTC 2018-11-03 13:31:50

Menu
ID : 3
Codec ID : text
Duration : 33 min 36 s
Encoded date : UTC 2018-11-15 20:17:18
Tagged date : UTC 2018-11-15 20:17:18
Menu For : 1
00:00:00.000 : Chapter 1

Jon Dykstra - Blackroom Blog Profits (2018)

Download link:

Download From Rapidgator.net
https://rapidgator.net/file/c8c6e09fe3331dcdfe196bd82508491a/sub8s.Jon.Dykstra..Blackroom.Blog.Profits.2018.part1.rar.html
https://rapidgator.net/file/7a9344184e55f45001e2a35c070e54e8/sub8s.Jon.Dykstra..Blackroom.Blog.Profits.2018.part2.rar.html
https://rapidgator.net/file/ae0066b4a25897949bbe7c9bd05628e8/sub8s.Jon.Dykstra..Blackroom.Blog.Profits.2018.part3.rar.html
https://rapidgator.net/file/d487849dcfeb4339635d1bc3a6774de0/sub8s.Jon.Dykstra..Blackroom.Blog.Profits.2018.part4.rar.html
https://rapidgator.net/file/fbfddbc1a5b6f217e84092714f541b56/sub8s.Jon.Dykstra..Blackroom.Blog.Profits.2018.part5.rar.html
https://rapidgator.net/file/a64ac71cc57214be1d8d98daf2fe7409/sub8s.Jon.Dykstra..Blackroom.Blog.Profits.2018.part6.rar.html
https://rapidgator.net/file/bc712f88b5a90cf200df93e543dc73d3/sub8s.Jon.Dykstra..Blackroom.Blog.Profits.2018.part7.rar.html

Download From Nitroflare.com
http://nitroflare.com/view/7DDBBE89EBDB44E/sub8s.Jon.Dykstra..Blackroom.Blog.Profits.2018.part1.rar
http://nitroflare.com/view/7BAA411B87C4681/sub8s.Jon.Dykstra..Blackroom.Blog.Profits.2018.part2.rar
http://nitroflare.com/view/8A9DEC846D77F93/sub8s.Jon.Dykstra..Blackroom.Blog.Profits.2018.part3.rar
http://nitroflare.com/view/39A99E91C035D7F/sub8s.Jon.Dykstra..Blackroom.Blog.Profits.2018.part4.rar
http://nitroflare.com/view/D57720F26B0ECB5/sub8s.Jon.Dykstra..Blackroom.Blog.Profits.2018.part5.rar
http://nitroflare.com/view/AA1CB1A4E5F973D/sub8s.Jon.Dykstra..Blackroom.Blog.Profits.2018.part6.rar
http://nitroflare.com/view/DE2CE1D12B8F0AF/sub8s.Jon.Dykstra..Blackroom.Blog.Profits.2018.part7.rar

Links are Interchangeable - No Password - Single Extraction
UploadGIG.com
Dear visitor, you entered the site as an unregistered user.
We recommend you to register or login to the website using your name.

Tags

News archive

^