"We have Tested and found Below Host Trustable, Please Buy Premium account From Below Host.
UploadGIG.com
Note: Do not Buy Premium account from Reseller"
Information to the news
  • Views: 0
  • Author: buby2009
  • Date: 1-12-2018, 00:49
1-12-2018, 00:49

Free Download Danilo Lee - Prosperity Lead Gen

Category: Tutorials

Danilo Lee - Prosperity Lead Gen
Danilo Lee - Prosperity Lead Gen
WEBRip | English | MP4 | 1280 x 720 | AVC ~1008 Kbps | 30 fps
AAC | 128 Kbps | 44.1 KHz | 2 channels | 18:13:31 | 7.11 GB
Genre: eLearning Video / Business, Sales, Marketing


The Blueprint to Building, Maintaining, and Selling a LeadGen Company Combining decades of experience in all facets of a true lead generation company, Prosperity brings together experts from across the country to share invaluable, real-world advice.
Whether it be managing people, copywriting, cash flow issues, or CRO/LP optimization, you'll be brainstorming with the best of the best. The networking opportunities are unmatched in a small group setting like this.

Prosperity's host, Danilo Lee, has been in the lead generation business for over a decade. Working as Head of Customer Acquisition for PromoJam (acquired by Deluxe Corporation NYSE: DLX), AgentAce (acquired by Quicken Loans), ChowNow and others, Danilo has played a vital role in optimizing campaigns and ultimately reducing customer acquisition costs for successfully acquired companies.

You'll also hear presentations by actual employees from Google and SnapChat, an attorney (specializing in web-based businesses), and a highly-respected copywriter. You'll be sitting amongst other highly-successful marketers and industry representatives with the opportunity to form real relationships, first hand.

We won't make you sit and listen all day.
Strap your boots on because this is going to be a 3-day endurance test where you'll get as much out of the mastermind as you put in. Expect to learn:

Fundamentals of leading a leadgen company
How to run a team
Explore the art of pitching your company's service/product
Step up your copywriting skills
Finding and negotiating new offers
Loosely wireframe/design a landing page
Using conversion rate optimization tools
Google, Snapchat, Facebook, etc insights
Staying up to date with legal changes
Finding financing for campaigns
Valuating and selling your business
If you're struggling to learn how to take your business to the next level, join us at Prosperity where you'll have the opportunity to learn the skillsets you just can't find in a book or online.

also You can find my other last: Business-posts



General
Complete name : Prosperity Live Stream Day 1 Part 4.mp4
Format : MPEG-4
Format profile : Base Media
Codec ID : isom (isom/iso2/avc1/mp41)
File size : 81.4 MiB
Duration : 9 min 58 s
Overall bit rate mode : Variable
Overall bit rate : 1 140 kb/s
Season : 0
Movie name : Prosperity Live Stream Day 1 Part 4
Part : 0

Xtra : WM/Category

Video
ID : 1
Format : AVC
Format/Info : Advanced Video Codec
Format profile : [email protected]
Format settings : 1 Ref Frames
Format settings, CABAC : No
Format settings, RefFrames : 1 frame
Format settings, GOP : M=1, N=12
Codec ID : avc1
Codec ID/Info : Advanced Video Coding
Duration : 9 min 58 s
Bit rate : 1 008 kb/s
Width : 1 280 pixels
Height : 720 pixels
Display aspect ratio : 16:9
Frame rate mode : Constant
Frame rate : 30.000 FPS
Color space : YUV
Chroma subsampling : 4:2:0
Bit depth : 8 bits
Scan type : Progressive
Bits/(Pixel*Frame) : 0.036
Stream size : 71.9 MiB (88%)
Encoded date : UTC 2018-11-09 12:41:02
Tagged date : UTC 2018-11-09 12:41:02
Menus : 3

Audio
ID : 2
Format : AAC
Format/Info : Advanced Audio Codec
Format profile : LC
Codec ID : mp4a-40-2
Duration : 9 min 58 s
Bit rate mode : Variable
Bit rate : 128 kb/s
Channel(s) : 2 channels
Channel positions : Front: L R
Sampling rate : 44.1 kHz
Frame rate : 43.066 FPS (1024 SPF)
Compression mode : Lossy
Stream size : 9.13 MiB (11%)
Encoded date : UTC 2018-11-09 12:41:02
Tagged date : UTC 2018-11-09 12:41:02

Menu
ID : 3
Codec ID : text
Duration : 9 min 58 s
Encoded date : UTC 2018-11-15 20:20:24
Tagged date : UTC 2018-11-15 20:20:24
Menu For : 1
00:00:00.000 : Chapter 1

Danilo Lee - Prosperity Lead Gen

Download link:

Download From Rapidgator.net
https://rapidgator.net/file/f10c7f2998a38265dff6db4bd30ed8a5/art0y.Danilo.Lee..Prosperity.Lead.Gen.part1.rar.html
https://rapidgator.net/file/240ae7b4cde7de5a20726d9e74c00d94/art0y.Danilo.Lee..Prosperity.Lead.Gen.part2.rar.html
https://rapidgator.net/file/40c537f9a284cad00d2abcb80bdd8c3e/art0y.Danilo.Lee..Prosperity.Lead.Gen.part3.rar.html
https://rapidgator.net/file/7894ff8fc5816007eaf1168dcc3852bc/art0y.Danilo.Lee..Prosperity.Lead.Gen.part4.rar.html
https://rapidgator.net/file/24d7f79af517701ea2d3892aeb5c753d/art0y.Danilo.Lee..Prosperity.Lead.Gen.part5.rar.html
https://rapidgator.net/file/be302c49e7b81766996066c982dcaffe/art0y.Danilo.Lee..Prosperity.Lead.Gen.part6.rar.html
https://rapidgator.net/file/5f23d73bdf5db3b1697ecd7743695da2/art0y.Danilo.Lee..Prosperity.Lead.Gen.part7.rar.html
https://rapidgator.net/file/af27453c85a369c71c67a30a49803895/art0y.Danilo.Lee..Prosperity.Lead.Gen.part8.rar.html

Download From Nitroflare.com
http://nitroflare.com/view/982191B45ED056A/art0y.Danilo.Lee..Prosperity.Lead.Gen.part1.rar
http://nitroflare.com/view/B9E5E395A28CFE0/art0y.Danilo.Lee..Prosperity.Lead.Gen.part2.rar
http://nitroflare.com/view/B1CEC4727FB597C/art0y.Danilo.Lee..Prosperity.Lead.Gen.part3.rar
http://nitroflare.com/view/41128FFF833C794/art0y.Danilo.Lee..Prosperity.Lead.Gen.part4.rar
http://nitroflare.com/view/970270C1C9FEBD8/art0y.Danilo.Lee..Prosperity.Lead.Gen.part5.rar
http://nitroflare.com/view/4FFEDF8D8488C25/art0y.Danilo.Lee..Prosperity.Lead.Gen.part6.rar
http://nitroflare.com/view/3A46BF3E02F1E0F/art0y.Danilo.Lee..Prosperity.Lead.Gen.part7.rar
http://nitroflare.com/view/B41AED17D67C878/art0y.Danilo.Lee..Prosperity.Lead.Gen.part8.rar

Links are Interchangeable - No Password - Single Extraction
UploadGIG.com
Dear visitor, you entered the site as an unregistered user.
We recommend you to register or login to the website using your name.

Tags

News archive

^